Příklad popisu torrentu.
Přirat příspěvek #1
admin 
Rank:Owner
04/04/2021 20:57:51
(2 weeks ago)



 5.19
 588.17 GB
 113.34 GB

Příspěvky: 25
Czech Republic    
USA - Ready Player One
Slovensko - Ready Player One: Hra sa začína


Ukázka kóku úvodu s vlajkami

Code
[b][img]https://img.csfd.cz/files/images/flags/159/572/159572019_fcfacc.gif[/img]USA - Ready Player One
[img]https://img.csfd.cz/files/images/flags/159/571/159571967_be0783.gif[/img]Slovensko - Ready Player One: Hra sa začína[/b]



Akční / Sci-Fi / Dobrodružný

USA / Indie, 2018, 140 min

Režie: Steven Spielberg
Předloha: Ernest Cline (kniha)
Scénář: Zak Penn, Ernest Cline
Kamera: Janusz Kamiński
Hudba: Alan Silvestri
Hrají: Tye Sheridan, Olivia Cooke, Ben Mendelsohn, Lena Waithe, Mark Rylance, Simon Pegg, T.J. Miller, Philip Zhao, Win Morisaki, Hannah John-Kamen, Ralph Ineson, Susan Lynch, Clare Higgins, Laurence Spellman, Perdita Weeks, Kit Connor, Ronke Adekoluejo, Sandra Dickinson, Lynne Wilmot, Jayden Fowora-Knight, Elliot Barnes-Worrell, Letitia

Děj filmu legendárního režiséra Stevena Spielberga je zasazen do roku 2045, kdy se svět ocitá na pokraji chaosu a kolapsu. Lidé však nalezli spásu v OASIS, rozsáhlém světě virtuální reality, který vytvořil geniální a excentrický James Halliday (Mark Rylance). Když Halliday zemře, odkáže své nesmírné bohatství prvnímu člověku, který najde Velikonoční vajíčko ukryté někde v OASIS. Odstartuje tak zběsilý závod, který pohltí celý svět. Když se k závodu o nalezení Velikonočního vajíčka rozhodne přidat nenápadný mladý hrdina Wade Watts (Tye Sheridan), je vržen do šílené, realitě na hony vzdálené honby za pokladem ve fantaskním světě mystérií, nečekaných objevů a nebezpečí.

Příklad obráku s odkazem na CSFD

Code
[url=https://www.csfd.cz/film/410534-ready-player-one-hra-zacina/prehled/][img]https://czech-torrent.cz/domains/czech-torrent.cz/gallery/deac542f1e2e901b14c73c1dcfc15039.png[/img][/url]





Příklad obrázku s odkazem na video na Youtube

Code
[url=https://www.youtube.com/watch?v=WHJpYm9CwrM][img]https://czech-torrent.cz/domains/czech-torrent.cz/gallery/4a96cf7eaeb154ec20815d984d67d605.png[/img][/url]





Kód obrázku MEDIAinfo

Code
[img]https://czech-torrent.cz/domains/czech-torrent.cz/gallery/4fddab1922d653c9f64c60f838bdd4e8.png[/img]





Kód skrývání MEDIAinfo

Code
[Spoiler]obsah informací o kodeku[/Spoiler]



Spoiler:show
General
Unique ID                      : 315757242157097336473392601243253138906 (0xED8CA1FE0CDA77E7DAEA927B6D3EE5DA)
Complete name                  : D:FilmyAkčníHra.zacina.Ready.Player.One.2018.1080p.BluRay.x264.mkv
Format                         : Matroska
Format version                 : Version 4 / Version 2
File size                      : 2.25 GiB
Duration                       : 2 h 19 min
Overall bit rate               : 2 300 kb/s
Encoded date                   : UTC 2018-07-06 14:08:45
Writing application            : mkvmerge v20.0.0 ('I Am The Sun'wink.gif 64-bit
Writing library                : libebml v1.3.5 + libmatroska v1.4.8

Video
ID                             : 1
Format                         : AVC
Format/Info                    : Advanced Video Codec
Format profile                 : High@L4.1
Format settings, CABAC         : Yes
Format settings, ReFrames      : 5 frames
Codec ID                       : V_MPEG4/ISO/AVC
Duration                       : 2 h 19 min
Bit rate                       : 2 026 kb/s
Width                          : 1 920 pixels
Height                         : 804 pixels
Display aspect ratio           : 2.40:1
Frame rate mode                : Constant
Frame rate                     : 23.976 (24000/1001) FPS
Color space                    : YUV
Chroma subsampling             : 4:2:0
Bit depth                      : 8 bits
Scan type                      : Progressive
Bits/(Pixel*Frame)             : 0.055
Stream size                    : 1.93 GiB (86%)
Writing library                : x264 core 148 r2795 aaa9aa8
Encoding settings              : cabac=1 / ref=5 / deblock=1:0:0 / analyse=0x3:0x133 / me=umh / subme=10 / psy=1 / psy_rd=1.00:0.00 / mixed_ref=1 / me_range=24 / chroma_me=1 / trellis=2 / 8x8dct=1 / cqm=0 / deadzone=21,11 / fast_pskip=1 / chroma_qp_offset=-2 / threads=96 / lookahead_threads=6 / sliced_threads=0 / nr=0 / decimate=1 / interlaced=0 / bluray_compat=0 / constrained_intra=0 / bframes=8 / b_pyramid=2 / b_adapt=2 / b_bias=0 / direct=3 / weightb=1 / open_gop=0 / weightp=2 / keyint=250 / keyint_min=23 / scenecut=40 / intra_refresh=0 / rc_lookahead=60 / rc=abr / mbtree=1 / bitrate=2026 / ratetol=1.0 / qcomp=0.60 / qpmin=0 / qpmax=69 / qpstep=4 / vbv_maxrate=31250 / vbv_bufsize=4087 / nal_hrd=none / filler=0 / ip_ratio=1.40 / aq=1:1.00
Default                        : Yes
Forced                         : No
Color range                    : Limited
Color primaries                : BT.709
Transfer characteristics       : BT.709
Matrix coefficients            : BT.709

Audio #1
ID                             : 2
Format                         : AC-3
Format/Info                    : Audio Coding 3
Mode extension                 : CM (complete main)
Format settings, Endianness    : Big
Codec ID                       : A_AC3
Duration                       : 2 h 19 min
Bit rate mode                  : Constant
Bit rate                       : 192 kb/s
Channel(s)                     : 2 channels
Channel positions              : Front: L R
Sampling rate                  : 48.0 kHz
Frame rate                     : 31.250 FPS (1536 spf)
Bit depth                      : 16 bits
Compression mode               : Lossy
Delay relative to video        : -43 ms
Stream size                    : 192 MiB (8%)
Language                       : Czech
Default                        : Yes
Forced                         : No

Audio #2
ID                             : 3
Format                         : AAC
Format/Info                    : Advanced Audio Codec
Format profile                 : LC
Codec ID                       : A_AAC
Duration                       : 2 h 19 min
Bit rate                       : 128 kb/s
Channel(s)                     : 2 channels
Channel positions              : Front: L R
Sampling rate                  : 48.0 kHz
Frame rate                     : 46.875 FPS (1024 spf)
Compression mode               : Lossy
Delay relative to video        : -43 ms
Stream size                    : 128 MiB (6%)
Language                       : English
Default                        : No
Forced                         : No

Text #1
ID                             : 4
Format                         : UTF-8
Codec ID                       : S_TEXT/UTF8
Codec ID/Info                  : UTF-8 Plain Text
Duration                       : 2 h 18 min
Bit rate                       : 1 b/s
Count of elements              : 55
Stream size                    : 1.44 KiB (0%)
Title                          : forced SRT
Language                       : Czech
Default                        : No
Forced                         : Yes

Text #2
ID                             : 5
Format                         : ASS
Codec ID                       : S_TEXT/ASS
Codec ID/Info                  : Advanced Sub Station Alpha
Duration                       : 2 h 18 min
Bit rate                       : 2 b/s
Count of elements              : 55
Compression mode               : Lossless
Stream size                    : 2.56 KiB (0%)
Title                          : forced ASS
Language                       : Czech
Default                        : No
Forced                         : Yes

Menu
00:00:00.000                   : en:00:00:00.000
00:10:08.233                   : en:00:10:08.233
00:20:18.259                   : en:00:20:18.259
00:30:37.627                   : en:00:30:37.627
00:40:38.269                   : en:00:40:38.269
00:50:08.964                   : en:00:50:08.964
01:03:01.778                   : en:01:03:01.778
01:11:55.269                   : en:01:11:55.269
01:20:14.727                   : en:01:20:14.727
01:30:58.328                   : en:01:30:58.328
01:43:26.742                   : en:01:43:26.742
01:53:02.150                   : en:01:53:02.150
02:04:20.161                   : en:02:04:20.161
02:09:17.249                   : en:02:09:17.249


Tučné písmo

Code
[b]text[/b]


text


Kurzíva

Code
[i]text[/i]


text


Barva písma (příklad červené)

Code
[color=red]text[/color]


text


Velikost písma

Code
[size=large]text[/size]


text

Naposledy upraveno admin at 04/04/2021 21:12:26

top



Reklama

Žádný ze zde zobrazených souborů se nenachází na tomto serveru. Administrátor stránek nenese žádnou zodpovědnost za zde zveřejněné odkazy. Nepoužívejte tuto stránku k distribuci nebo k downloadu jakýchkoliv materiálů, ke kterým nemáte legální oprávnění. Vše konáte na vlastní zodpovědnost.